70mai HD Backup Camera

Цена:16-17$ (на распродаже)

70mai HD Backup CameraТак получилось, что мне в руки попал комплект зеркала-видеорегистратора 70mai Rearview Dash Cam Wide, про которое я делал обзор, с камерой заднего вида HD Backup Camera (Midrive RC04).

Т.к. у меня была возможность протестировать второй вариант камеры, а хозяин этого комплекта не был против, делаю отдельный обзор на камеру заднего вида. Обзор будет небольшой, т.к. отдельно от зеркала можно только посмотреть видео и сравнить его качество с камерой Night Vision Backup Camera (Midrive RC05).

Т.к. камера покупалась сразу в комплекте с зеркалом, я не вижу смысла давать ссылку на комплект. Камеры Midrive RC04 и RC05 можно приобрести отдельно в всех магазинах, которые торгуют регистраторами 70mai на Али. В конце обзора я дам ссылки на все эти магазины.

Вместе с зеркалом камеры была в пути 26 дней. По Украине доставила Укрпочта. И, если зеркало упаковано в специальную транспортировочную коробку, то коробки с камерами такой роскоши не имеют и лично мне приходят мятыми. Так было и в этот раз.

Я указал приблизительную цену, т.к. высчитать, сколько стоила камера из комплекта, нельзя. А те камеры, которые продаются отдельным лотом, на распродажах и с купонами магазина и Али вполне реально взять за 16-17$.

Внешний вид:

Камера заднего вида HD Backup Camera (Midrive RC04) внешне ничем не отличается от камеры 70mai Reverse Camera, но имеет более удобное крепление с регулировкой наклона камеры. Кроме того, разъем камеры такой же, как у Night Vision Backup Camera. А в остальном внешних отличий нет. Рекомендую устанавливать камеру не на штатное крепление, а купить рамку для номера, как у меня. Визуально отверстия для крепежа вроде совпадают, более точно сказать не могу, но у Night Vision Backup Camera штатное крепление такое же, а сама камера точно легко устанавливается в рамку.

Характеристики:

Характеристики даны в сравнении с камерой Night Vision Backup Camera.

Название: HD Backup Camera (Midrive RC04) Night Vision Backup Camera (Midrive RC05)
Разрешение: 1920 x 1080 1920 x 1080
Угол обзора: 120° 135°
Сенсор: JX-F23, 1 стеклянная + 3 пластиковые линзы (1G3P) SONY IMX307, 4 стеклянные линзы (4G)
Диафрагма: f/1.8 f/2.2
Степень защиты: IP67 IP67
Рабочая температура: -10 ° C ~ 60 ° C -10 ° C ~ 60 ° C
Температура хранения: -20 ° C ~ 70 ° C -20 ° C ~ 70 ° C
Длина кабеля: 5,5 метров 5,5 метров

Фото:
Подключение:

Отличий от подключения Night Vision Backup Camera (Midrive RC05) нет. Устанавливаем зеркало, подключаем камеру заднего вида, подключаем кабель питания. При включении голосовое оповещение подтвердит, что камера заднего вида подключена. На экране регистратора вид спереди/сзади переключается крайней левой кнопкой. Если подключить камеру к питанию лампы заднего хода, то при включении заднего хода экран регистратора автоматически переключится на камеру заднего хода и появятся парковочные полосы. Полосы на изображении не регулируются, но на 4PDA читал про предыдущую камеру, что это можно сделать вручную отредактировав соответствующий файл в приложении.

Т.к. на постоянной основе устанавливать эту камеру я не планировал, камера была просто установлена на заднее стекло при помощи двухстороннего скотча.

Видео:

Записанные видео можно посмотреть через «Галерею» в приложении. Все видеоролики, записанные камерой заднего вида во всех папках, кроме папки «Фото», (обычное видео, аварийное видео, наблюдение за парковкой) находятся в закладке «Назад». К сожалению, кривой перевод меню и кривые голосовые оповещения производитель так и не исправил… Скачать сохраненное видео можно, как по одному файлу, так и массово.

Примеры видео:
Техническая информация, прячу все под спойлер:

General
Format : MPEG-4
Format profile : Base Media / Version 2
Codec ID : mp42 (mp42/isom)
File size : 100 MiB
Duration : 1 min 0 s
Overall bit rate : 14.0 Mb/s
Encoded date : UTC 2020-11-14 15:00:15
Tagged date : UTC 2020-11-14 15:00:15

Video
ID : 1
Format : AVC
Format/Info : Advanced Video Codec
Format profile : High@L4.2
Format settings : CABAC / 1 Ref Frames
Format settings, CABAC : Yes
Format settings, Reference fra : 1 frame
Format settings, GOP : M=1, N=13
Codec ID : avc1
Codec ID/Info : Advanced Video Coding
Duration : 1 min 0 s
Bit rate : 12.7 Mb/s
Width : 1 920 pixels
Height : 1 080 pixels
Display aspect ratio : 16:9
Frame rate mode : Constant
Frame rate : 25.000 FPS
Color space : YUV
Chroma subsampling : 4:2:0
Bit depth : 8 bits
Scan type : Progressive
Bits/(Pixel*Frame) : 0.244
Stream size : 90.5 MiB (91%)
Title : Hisilicon VIDEO
Language : English
Encoded date : UTC 2020-11-14 15:00:15
Tagged date : UTC 2020-11-14 15:00:15
Color range : Full
Color primaries : BT.709
Transfer characteristics : BT.709
Matrix coefficients : BT.709
Codec configuration box : avcC

Audio
ID : 2
Format : AAC LC
Format/Info : Advanced Audio Codec Low Complexity
Codec ID : mp4a-40-2
Duration : 59 s 989 ms
Bit rate mode : Constant
Bit rate : 128 kb/s
Channel(s) : 1 channel
Channel layout : C
Sampling rate : 48.0 kHz
Frame rate : 46.875 FPS (1024 SPF)
Compression mode : Lossy
Stream size : 918 KiB (1%)
Title : Hisilicon AUDIO
Language : English
Encoded date : UTC 2020-11-14 15:00:15
Tagged date : UTC 2020-11-14 15:00:15

Днем, солнечно:

Днем, пасмурно:

Днем, пасмурно, небольшой снег:

Сумерки:

Ночью:

Мои личные впечатления:

Чтобы много не писать — да Night Vision Backup Camera (Midrive RC05) ночью снимает значительно лучше. У HD Backup Camera (Midrive RC04) в темное время суток засветки от фар такие, что, даже на расстоянии метра-двух, номеров машины, которая идет сзади, не видно. Утром, днем и в сумерках номера видно нормально. При ясной погоде, не менее, чем с 6-8 метров номера прекрасно читаются. Из-за того, что камера была установлена на заднее стекло, а не снаружи, приблизительно по центру видео есть размытая полоса. Это не брак, это так выглядит на видео нить электрообогрева заднего стекла. К тому же у моего автомобиля слабая заводская тонировка стекл, при установке камеры снаружи, качество видео будет немного лучше, чем получилось у меня.

Можно ли сэкономить и взять HD Backup Camera? Вполне! Разница по цене — почти в два раза. Качество съемки днем вполне достойное, но при этом ночью качество будет оставлять желать лучшего… В общем можно, но лично я бы не экономил.

Если у вас потом появится желание поменять камеру на Night Vision Backup Camera, то сделать это будет легко. Но придется заплатить около 27-30$ за новую камеру. Мой совет: брать регистратор нужно все-таки с Night Vision Backup Camera, но делать это нужно только на распродажах и при наличии купона от продавца и хорошего купона от Али. Если повезет, то комплект выйдет дешевле 63-65$.

Ссылки на магазины на Али:

Тема на 4PDA, посвященная 70mai Rearview Dash Cam Wide и камерам заднего вида находится здесь.

P.S. Ко мне уже едет 70mai A800 с распродажи на 11.11. Обзор будет обязательно!

 

1,838 просмотров всего, 1 просмотров сегодня

6

Автор публикации

1 447
Комментарии: 1049Публикации: 410Регистрация: 04-09-2016

Добавить комментарий

Ваш e-mail не будет опубликован. Обязательные поля помечены *