70mai Rear Camera (Midrive RC06)

Цена:17.57$

70mai Rear Camera (Midrive RC06)Т.к. камеру заднего вида к регистратору 70mai A800 я покупал отдельно, то и обзор на нее делаю тоже отдельно. Полное название этой камеры 70mai Rear Camera (Midrive RC06), подходит она для старших моделей регистраторов 70mai: A500S и A800/A800S.

Камеру заднего вида я покупал в фирменном магазине 70mai на Али. Сейчас по этой же ссылке другой лот — площадки для крепления регистраторов. Поэтому даю ссылки на правильный лот в фирменном магазине и на самый дешевый лот на Али.

При покупке я использовал купон -3/15$ от Али, купон -2/4$ от магазина и 0.42$ сняло монетами при покупке в приложении. Общая скидка составила 5.42$. Посылка была доставлена за 26 дней, по Украине доставила Укрпочта. Продавец сэкономил на упаковке, коробка пришла сильно помятой, сама камера при этом не пострадал.

Внешний вид и краткое описание:

Камера заднего вида Midrive RC06 предназначена только для установки внутри салона автомобиля. Т.е. никакой влагозащиты нет и вне салона авто она очень быстро выйдет из строя. Внешне камера представляет из себя цилиндр с размерами 31,5 x 28,5 x 22 мм., крепится на заднее стекло с помощью электростатической пленки (лично я эти пленки не люблю и приклеил без этой пленки, т.к. снимать и переставлять эту камеру я в обозримом будущем не собираюсь). Конструкция камеры позволяет настроить угол объектива по вертикали приблизительно на угол в 30°. Собственного камера питания не имеет и получает его через регистратор, к которому подключена.

Характеристики:

Название: Rear Camera (Midrive RC06)
Процессор: Fullhan FH8536H
Сенсор: Gekewei GC2053, 2 стеклянные + 2 пластиковые линзы (2G2P)
Разрешение: 1920 x 1080
Кадров в секунду: 25
Угол обзора: 130°
Диафрагма: f/2.0
Степень защиты: нет
Питание (вход): 5V/0.5A
Рабочая температура: -10 °C ~ 60° C
Температура хранения: -20 °C ~ 70 °C
Длина кабеля: 5,5 метров
Комплект: Камера заднего вида Rear Camera (Midrive RC06), кабель для подключения к регистратору, электростатическая наклейка (2 шт.), наклейка 3M (2 шт., одна установлена на крепление), инструкция

70mai Rear Camera (Midrive RC06)

  1. Камера заднего вида
  2. Установочная площадка
  3. Кабель
  4. Соединение (порт A)
  5. Соединение (порт В)
  6. Сигнальный провод задней камеры
  7. Порт Mini USB 8PIN
Фото:

У меня не получается из-за бликов на заднем стекле качественно сфотографировать вид снаружи. А изнутри установленная камера выглядит так:

70mai Rear Camera (Midrive RC06)

А так он отражается в зеркале заднего вида:

70mai Rear Camera (Midrive RC06)

Установка:

К регистратору (A500S и A800/A800S) камера заднего вида подключается с помощью разъема Mini USB 8 pin (его еще называют его разъемом Canon). После того, как камера подключена, вы получите голосовое оповещение от подключенной камере заднего вида. Кроме того изменится функция крайней левой кнопки на регистраторе. Без задней камеры этой кнопкой включается/отключается запись звука, после подключении камеры заднего вида этой же кнопкой меняется вид на экране регистратора, с передней камеры на заднюю и наоборот (включить/выключить запись звука можно в настройках регистратора).

70mai Rear Camera (Midrive RC06)
Без подключенной камеры заднего вида крайняя левая кнопка включает/отключает запись звука
70mai Rear Camera (Midrive RC06)
При подключенной камере заднего вида крайняя левая кнопка переключает вид с передней камеры на заднюю и наоборот. Значок на экране меняется

В настройках регистратора 70mai A800 у камеры заднего вида одно и то же разрешение независимо от выбранной степени сжатия и разрешения.

70mai Rear Camera (Midrive RC06)

Примеры видео:

Кодек и разрешение видео:

Rear Camera (Midrive RC06) H.264 1920×1080 25fps

Техническая информация, прячу все под спойлер:

General
Format : MPEG-4
Format profile : Base Media / Version 2
Codec ID : mp42 (isom/avc1/mp42)
File size : 73.4 MiB
Duration : 1 min 0 s
Overall bit rate : 10.3 Mb/s
Encoded date : UTC 2000-01-01 00:00:00
Tagged date : UTC 2000-01-01 00:00:00

Video #1
ID : 1
Format : HEVC
Format/Info : High Efficiency Video Coding
Format profile : Main@L5@Main
Codec ID : hvc1
Codec ID/Info : High Efficiency Video Coding
Duration : 1 min 0 s
Bit rate : 8 193 kb/s
Width : 1 920 pixels
Height : 1 080 pixels
Display aspect ratio : 16:9
Frame rate mode : Constant
Frame rate : 25.000 FPS
Color space : YUV
Chroma subsampling : 4:2:0
Bit depth : 8 bits
Bits/(Pixel*Frame) : 0.158
Stream size : 58.6 MiB (80%)
Language : English
Encoded date : UTC 2000-01-01 00:00:00
Tagged date : UTC 2000-01-01 00:00:00
Codec configuration box : hvcC

Video #2
ID : 3
Format : AVC
Format/Info : Advanced Video Codec
Format profile : High@L5.1
Format settings : CABAC / 1 Ref Frames
Format settings, CABAC : Yes
Format settings, Reference fra : 1 frame
Format settings, GOP : M=1, N=25
Codec ID : avc1
Codec ID/Info : Advanced Video Coding
Duration : 1 min 0 s
Bit rate : 1 640 kb/s
Width : 848 pixels
Height : 480 pixels
Display aspect ratio : 16:9
Frame rate mode : Constant
Frame rate : 25.000 FPS
Color space : YUV
Chroma subsampling : 4:2:0
Bit depth : 8 bits
Scan type : Progressive
Bits/(Pixel*Frame) : 0.161
Stream size : 11.7 MiB (16%)
Language : English
Encoded date : UTC 2000-01-01 00:00:00
Tagged date : UTC 2000-01-01 00:00:00
Codec configuration box : avcC

Audio
ID : 2
Format : AAC LC
Format/Info : Advanced Audio Codec Low Complexity
Codec ID : mp4a-40-2
Duration : 59 s 968 ms
Bit rate mode : Constant
Bit rate : 64.0 kb/s
Channel(s) : 1 channel
Channel layout : C
Sampling rate : 16.0 kHz
Frame rate : 15.625 FPS (1024 SPF)
Compression mode : Lossy
Stream size : 469 KiB (1%)
Language : English
Encoded date : UTC 2000-01-01 00:00:00
Tagged date : UTC 2000-01-01 00:00:00
mdhd_Duration : 59968

Днем:

Дождь, мокрый снег:

Дождь:

Туман:

Вечер:

Ночь:

Плюсы и минусы 70mai Rear Camera (Midrive RC06):

Плюсы:

  • Хорошее качество виде днем
  • Возможность отрегулировать угол наклона объектива

Плюс/минус:

  • FHD, как мне кажется, на данный момент слишком мало даже для камеры заднего вида

Минус:

  • Слишком светлое видео днем
  • Проблема с чтением номеров ночью
  • Невозможно сделать фото с помощью задней камеры
Выводы:

Если вкратце, то: камера пишет точно так, как должна писать камера с разрешением FHD. Кроме того, изображение, как мне кажется, слишком светлое, но это ни на что не влияет. Днем качество вполне нормальное, все можно разглядеть, в том числе и номера автомобилей, которые едут сзади. Вечером и в сумерках тоже особых проблем не наблюдаю, а вот по темноте все хуже. Ночью номера видны только в непосредственной близости, два-три метра и у автомобиля, который едет точно за вами. Номера встречных машин разглядеть не получится. И, естественно, засветы от фар идущих за вами автомобилей. Не буду ругать или хвалить Midrive RC06 потому, что по качеству записи, это вполне стандартная заднего вида производства 70mai. Только Night Vision Backup Camera (Midrive RC05) ночью снимает немного лучше.

Я уже писал, что для нормальной съемки ночью, нужен дополнительный объектив. И, крайне желательна, ик-подсветка. Вот тогда и будет хорошее качество видео. Пока у регистраторов 70mai ничего подобного нет. Но, повторюсь, если у 70mai появятся регистраторы и задние камеры с двумя объективами, для дневной и для ночной съемки, я точно куплю.

Очень удивило то, что нельзя сделать снимок с помощью задней камеры. В идеале должно быть так: делаете снимок с помощью приложения. получаете два — с передней и задней камер. Так, например, реализовано у зеркала DDPai Mola E3, которое в комплекте с камерой заднего вида стоит почти в три раза дешевле, чем комплект A800 + RC06.

И еще один момент. Для моделей A500S и A800/A800S на Али можно найти поляризационный фильтр (CPL). Для объектива передней камеры. Ценник конский. Вопрос производителю: почему 70mai не производит собственный CPL-фильтр для объективов передней и задней камер? Думаю, что многие доплатили бы за фильтр, чтобы купить сразу все в одном комплекте.

На данный момент Rear Camera (Midrive RC06) — одна из двух камер камер 70mai, которые предназначены для установки в салоне автомобиля. Вторая камера это Rear Camera (Midrive RC09), производитель заявляет, что эта камера предназначена исключительно для регистратора A400, но в действительности ее можно подключить и к моделям A500S и A800/A800S. Пока Midrive RC09 я еще в руках не держал, планирую купить и протестировать.

 

449 просмотров всего, 4 просмотров сегодня

6

Автор публикации

не в сети 2 часа

Vlad

1 486
Комментарии: 1072Публикации: 415Регистрация: 04-09-2016

Добавить комментарий

Ваш e-mail не будет опубликован. Обязательные поля помечены *